О чём ещё говорят мужчины / 2011 / РУ / Blu-Ray (1080p)

Золотая раздача Объем скачанного не учитывается, а отданное засчитывается полностью. На золотых раздачах появляется дополнительная возможность поднять свой рейтинг.
loading...

Оригинальное название: О чём ещё говорят мужчины
Год выпуска: 2011
Жанр: Комедия
Выпущено: Россия, Кинокомпания «Квадрат»
Режиссер: Дмитрий Дьяченко (II)
В ролях: Леонид Барац, Александр Демидов (III), Ростислав Хаит, Алёна Бабенко, Елена Подкаминская, Екатерина Вилкова, Виталий Хаев, Анатолий Белый, Денис Шведов, Наталья Швец (II), Максим Виторган, Алексей Макаров, Владимир Меньшов, Сергей Бурунов, Михаил Ефремов, Валдис Пельш, Алексей Хардиков, Анна Касаткина-Барац, Владимир Кисаров, Антон Соколов (I), Наталья Левина, Мария Зыкова, Александр Комиссаров, Анна Фомина, Ефим Банчик, Виктор Бабич, Игорь Гудеев, Дмитрий Тихонов, Сергей Неудачин, Константин Чепурин, Виталий Герасимов, Камиль Ларин, Сергей Чекрыжов, Руслан Гуревский, Екатерина Томилина, Елена Чернявская, Екатерина Виноградова, Нелли Селезнева, Вадим Полубинский, Игорь Андрейчук

О фильме: Леша, Слава и Камиль в трудную минуту приходят на помощь своему другу Саше. Накануне Нового года он умудрился вступить в конфликт с женой сотрудника силовых структур, и теперь четверо друзей заперлись в офисе рекламного агентства, которым руководит Саша, пытаясь придумать выход из сложившейся ситуации и коротая время в мужских разговорах.

Качество: Blu-Ray (1080p)
Видео: MPEG-4 AVC, 29723 Кбит/с, 1920x1080, 24.000 кадр/с
Аудио: Русский (LPCM, 6 ch, 6912 Кбит/c)
Размер: 30.28 ГБ
Продолжительность: 01:38:28
Язык: Русский
Комментарии ( Комментировать )
AlexandraSss
16 июня 2018 в 21:52 | Ответить
Эта часть вроде мне показалась получше, немного интереснее
6 из 10.
Боссмира
17 января 2015 в 16:07 | Ответить
Нудноватое насквозь вторичное барахло снятое креаклами про креаклов и для креаклов. Авторы не выросли из конца 90-х начала 00-х. Тогда их шутки на общественные и политические темы были и актуальны и свежи. А сейчас смотрится так, что они умные и хорошие, а остальные кругом дураки с лампочками во рту. 10 лет прошло а представления остались те же. Шутки про жизнь/отношения уже наполовину приелись. Как комедия положений совсем не смотрится. Старческая деменция у автором началась раньше положенного. Фильм на 2+ и то за красивую картинку.
cdr1
28 февраля 2012 в 18:26 | Ответить
это что за сэмпл такой, длиной 2 секунды, да еще и пережатый?


General
Complete name : C: \Users \Вход \Downloads \O.chjom.ewjo.govorjat.muzhchiny.2011.x264.Blu-Ray.(1080p).m2ts
Format : AVI
Format/Info : Audio Video Interleave
File size : 11.2 MiB
Duration : 12s 913ms
Overall bit rate : 7 260 Kbps

Video
ID : 0
Format : MPEG-4 Visual
Format profile : [email protected]
Format settings, BVOP : No
Format settings, QPel : No
Format settings, GMC : No warppoints
Format settings, Matrix : Default (H.263)
Codec ID : XVID
Codec ID/Hint : XviD
Duration : 1s 625ms
Bit rate : 45.1 Mbps
Width : 1 920 pixels
Height : 1 080 pixels
Display aspect ratio : 16:9
Frame rate : 24.000 fps
Color space : YUV
Chroma subsampling : 4:2:0
Bit depth : 8 bits
Scan type : Progressive
Compression mode : Lossy
Bits/(Pixel*Frame) : 0.907
Stream size : 8.74 MiB (78%)
Writing library : Lavc53.1.0

Audio
ID : 1
Format : PCM
Format settings, Endianness : Little
Format settings, Sign : Signed
Codec ID : 1
Duration : 12s 913ms
Bit rate mode : Constant
Bit rate : 1 536 Kbps
Channel(s) : 2 channels
Sampling rate : 48.0 KHz
Bit depth : 16 bits
Stream size : 2.36 MiB (21%)
Interleave, duration : 1 ms (0.01 video frame)
Interleave, preload duration : 300 ms
aandrynin
17 февраля 2012 в 22:48 | Ответить
vn1973 сказал(а):звук почему не в ac3 или dts?


а что (LPCM, 6 ch, 6912 Кбит/c) хуже?
dimentiySPB
7 февраля 2012 в 20:28 | Ответить
чистый маркетинг, об этом кричаще говорит даже размер - "такой" фильм явно мог бы уместиться на однослойку
с первой частью ничего общего, та была "шедевр". а эта - как "Дом 2", ни больше, ни меньше
7 февраля 2012 в 19:52 | Ответить
сансаныч сказал(а):
а потом эстонцы отрицают что они тормозят.это и так 1080р)

до вас дошло что он про рип спрашивал или еще нет?)
сансаныч
7 февраля 2012 в 17:02 | Ответить
eduardik сказал(а):А будет 1080р?

а потом эстонцы отрицают что они тормозят.это и так 1080р)
altruist100
7 февраля 2012 в 15:27 | Ответить
Квартет - большие умницы. А те, кто считает фильм "аццкий ацтой !" или "фильм нудное говно!"( цитирую ) не доросли пока до возраста понимания. Ничего, все впереди.
Большое спасибо за раздачу.
egor123
7 февраля 2012 в 15:07 | Ответить
Фильм посмотрели дважды.Первый раз в кинотеатре перед Новым Годом настроение было предпраздничное и хотелось чего-то шумного,веселого,фильм показался нудноватым и диалоги через чур длинными.При просмотре во второй раз все встало на свои места и философские разговоры уже не напрягают и девчонки в фильме красивые и в меру умные и сюжет интересный,ну а квартет И всегда достоин уважения,не стоят на месте развиваются,взрослеют,радуют нас новыми фильмами.Будем ждать продолжения.
Кузнецoff
7 февраля 2012 в 14:17 | Ответить
Ребят, фильм отличный, авторы не сидят на месте, эксперементируют. Да, фильм не подвижный, всё происходит в замкнутом пространстве, но мысли взрослее, мужественнее, если можно так сказать. Всегда с большой любовью относился к Квартету и рад что вторая часть отличается от первой. Вот только саунда хотелось бы побольше... Всего пара песен...
averkiev
7 февраля 2012 в 14:11 | Ответить
А мне обе части понравились одинаково (вторую смотрел в кинотеатре)
Morrison13
7 февраля 2012 в 14:06 | Ответить
Слишком классная была первая серия. Вторую не досмотрел. Муть