Нет игры - нет жизни: Начало / Nō gēmu Nō raifu Zero (No Game No Life: Zero) / 2017 / ЛД / BDRip (720p)

Для того, чтобы скачать раздачу - скачайте торрент-файл и запустите его при помощи клиента. Дополнительная информация на Форуме здесь.
loading...

Название: Нет игры — нет жизни: Начало
Оригинальное название: Nō gēmu Nō raifu Zero (No Game No Life: Zero)
Год выпуска: 2017
Жанр: Приключения, фантастика, полнометражный
Выпущено: Япония, Madhouse Studio
Режиссер: Ацуко Исидзука
В ролях: Ёко Хикаса, Юка Игути, Ай Каяно, Риэ Кугимия, Ёсицугу Мацуока, Мамико Ното, Миюки Савасиро, Юкари Тамура

О фильме: Эта история происходит за шесть тысяч лет до того, как Сора и Сиро появились в истории Дисборда. Война уничтожила землю, разрывая небеса, разрушая звёзды и даже угрожая уничтожить всё человечество. Среди хаоса и разрушения молодой человек по имени Рику ведёт человечество к завтрашнему дню по велению своего сердца. В один прекрасный день, в руинах города эльфов, он встречает Шуви, девушку-изгнанницу Экс-Машин, которая просит научить её, что значит иметь человеческое сердце.

Качество: BDRip (720p)
Видео: MPEG-4 AVC, 2290 Кбит/c, 1280x720
Аудио: Русский (AAC, 2 ch, 192 Кбит/с), японский (AAC, 2 ch, 207 Кбит/с)
Размер: 2 ГБ
Продолжительность: 01:46:28
Перевод: Любительский двухголосый
Комментарии ( Комментировать )
sathal2008
4 марта 2018 в 04:20 | Ответить
batawin2011 сказал(а):в Меню поиск раздач нажмите Добавить элемент
Заголовок ссылки - Подобные раздачи
Строка поиска - Нет игры - нет жизни: Начало / No Game No Life: Zero

готово
batawin2011
3 марта 2018 в 21:21 | Ответить
в Меню поиск раздач нажмите Добавить элемент

Заголовок ссылки - Подобные раздачи
Строка поиска - Нет игры - нет жизни: Начало / No Game No Life: Zero
sathal2008
3 марта 2018 в 20:43 | Ответить
batawin2011 сказал(а):Постер должен иметь ширину 200 пикселей в формате jpg
Запрещено:
Заливать постер на radikal.ru и imageup.ru.

готово
batawin2011
3 марта 2018 в 18:46 | Ответить
Постер должен иметь ширину 200 пикселей в формате jpg

Запрещено:
Заливать постер на radikal.ru и imageup.ru.

//forum.kinozal.guru/showpost.php?p=2715216&postcount=8
sathal2008
3 марта 2018 в 18:06 | Ответить
batawin2011 сказал(а):О фильме: Эта история происходит за шесть тысяч лет до того, как Сора и Сиро появились в истории Дисборда. Война уничтожила землю, разрывая небеса, разрушая звёзды и даже угрожая уничтожить всё человечество. Среди хаоса и разрушения молодой человек по имени Рику ведёт человечество к завтрашнему дню по велению своего сердца. В один прекрасный день, в руинах города эльфов, он встречает Шуви, девушку-изгнанницу Экс-Машин, которая просит научить её, что значит иметь человеческое сердце.
Пишется одним абзацем

отработал
batawin2011
3 марта 2018 в 14:29 | Ответить
О фильме: Эта история происходит за шесть тысяч лет до того, как Сора и Сиро появились в истории Дисборда. Война уничтожила землю, разрывая небеса, разрушая звёзды и даже угрожая уничтожить всё человечество. Среди хаоса и разрушения молодой человек по имени Рику ведёт человечество к завтрашнему дню по велению своего сердца. В один прекрасный день, в руинах города эльфов, он встречает Шуви, девушку-изгнанницу Экс-Машин, которая просит научить её, что значит иметь человеческое сердце.

Пишется одним абзацем
sathal2008
3 марта 2018 в 14:25 | Ответить
batawin2011 сказал(а):Язык: Русский - удалите

все готово
batawin2011
3 марта 2018 в 12:45 | Ответить
Язык: Русский - удалите
sathal2008
3 марта 2018 в 12:40 | Ответить
batawin2011 сказал(а):Видео: MPEG-4 AVC, 2290 Кбит/c, 1280x720

спасибо исправил
batawin2011
3 марта 2018 в 12:21 | Ответить
Видео: MPEG-4 AVC, 2290 Кбит/c, 1280x720
sathal2008
3 марта 2018 в 08:00 | Ответить
STRATION сказал(а):Здравствуйте!
Предоставьте инфофайл на материал.

Audio #1
ID : 2
Format : AAC
Format/Info : Advanced Audio Codec
Format profile : LC
Codec ID : mp4a-40-2
Duration : 1 h 46 min
Bit rate mode : Variable
Bit rate : 192 kb/s
Maximum bit rate : 198 kb/s
Channel(s) : 2 channels
Channel positions : Front: L R
Sampling rate : 48.0 kHz
Frame rate : 46.875 FPS (1024 SPF)
Compression mode : Lossy
Stream size : 144 MiB (7%)
Title : RU
Language : Russian
Encoded date : UTC 2018-02-28 15:15:07
Tagged date : UTC 2018-02-28 15:16:04

Audio #2
ID : 3
Format : AAC
Format/Info : Advanced Audio Codec
Format profile : LC
Codec ID : mp4a-40-2
Duration : 1 h 46 min
Bit rate mode : Variable
Bit rate : 207 kb/s
Maximum bit rate : 275 kb/s
Channel(s) : 2 channels
Channel positions : Front: L R
Sampling rate : 48.0 kHz
Frame rate : 46.875 FPS (1024 SPF)
Compression mode : Lossy
Stream size : 157 MiB (8%)
Title : JP
Language : Japanese
Encoded date : UTC 2018-02-28 15:16:00
Tagged date : UTC 2018-02-28 15:16:04
3 марта 2018 в 08:00 | Ответить
STRATION сказал(а):Здравствуйте!
Предоставьте инфофайл на материал.

Video
ID : 1
Format : AVC
Format/Info : Advanced Video Codec
Format profile : [email protected]
Format settings : CABAC / 4 Ref Frames
Format settings, CABAC : Yes
Format settings, ReFrames : 4 frames
Codec ID : avc1
Codec ID/Info : Advanced Video Coding
Duration : 1 h 46 min
Bit rate : 2 290 kb/s
Maximum bit rate : 20.3 Mb/s
Width : 1 280 pixels
Height : 720 pixels
Display aspect ratio : 16:9
Frame rate mode : Constant
Frame rate : 23.976 (24000/1001) FPS
Color space : YUV
Chroma subsampling : 4:2:0
Bit depth : 8 bits
Scan type : Progressive
Bits/(Pixel*Frame) : 0.104
Stream size : 1.70 GiB (85%)
Writing library : x264 core 155 r2867+74 66b5600 t_mod_Custom_2 [[email protected] X86_64]
STRATION
2 марта 2018 в 19:34 | Ответить
Постер Вашей раздачи не такого формата как надо, необходимо выполнить согласно рекомендуемым требованиям на нашем трекере и соответствовать следующим критериям 200 пикс. по ширине и не превышать вес 30 КБ. переделайте. Далее...

Оформляйте так в
Предварительное описание

Название: Нет игры - нет жизни: Начало
Оригинальное название: No Game No Life: Zero
Год выпуска: 2017
Жанр: Приключения, фантастика, полнометражный
Выпущено: Япония, Madhouse Studio
Режиссер: Ацуко Исидзука
В ролях: Ёко Хикаса, Юка Игути, Аи Каяно, Риэ Кугимия, Ёсицугу Мацуока, Мамико Ното, Миюки Савасиро, Юкари Тамура

В Техданные

Качество: BDRip (720p)
Видео: MPEG-4 AVC, 2290 Кбит/c, 1280x720
Аудио: Русский (AAC, 2 ch, 192 Кбит/с), японский (AAC, 2 ch, 207 Кбит/с)
Размер: 2 ГБ
Продолжительность: 01:46:28
Перевод: Любительский двухголосый

Обратите внимание на скриншоты, что превью - должно быть 320х180 пикс, а у ваших 200х112 Переделайте.
2 марта 2018 в 18:32 | Ответить
Здесь есть, как выполнить эту операцию //forum.kinozaltv.net/showthread.php?t=68458
2 марта 2018 в 18:23 | Ответить
В жанре, название напишите с большой буквы - Приключения, фантастика, полнометражный
sathal2008
2 марта 2018 в 18:22 | Ответить
STRATION сказал(а):Если по техданным судить, то название будет таким: Нет игры - нет жизни: Начало / No Game No Life: Zero / 2017 / ЛД / BDRip (720p)

как залить инфофайл? я пытался и на облоко, картинкой, текстом, ничего не помогло
STRATION
2 марта 2018 в 18:08 | Ответить
Если по техданным судить, то название будет таким: Нет игры - нет жизни: Начало / No Game No Life: Zero / 2017 / ЛД / BDRip (720p)
2 марта 2018 в 13:26 | Ответить
Здравствуйте!
Предоставьте инфофайл на материал.